Login
Username:
Password:
Remember Me:
[Signup]
[Recover Account]
Friends
BTScene
Friendly site

Ale Torrenty Team
Friendly site

Anime RG
Friendly site

KaranPC
Friendly site

P2PDL.com
Friendly site

Free Tutorials & Courses
Friendly site
Torrent Details For "I.Am.A.Killer.2016.BDRip.x264-ROVERS"

I.Am.A.Killer.2016.BDRip.x264-ROVERS

To download this torrent, you need a BitTorrent client: Vuze or BTGuard
Download this torrent
Download using Magnet Link

Direct Download - no client needed

Download Faster - High Speed Download

Health:
Seeds: 300
Leechers: 202
Completed: 444 
Last Checked: 11-08-2017 18:37:56

Uploader Reputation points : 109356
External: Torrent




Write a Review for the Uploader:   55   Say Thanks with one good review:


Details
Name:I.Am.A.Killer.2016.BDRip.x264-ROVERS
Description:
I.Am.A.Killer.2016.BDRip.x264-ROVERS

ImDb: http://www.imdb.com/title/tt4303340



Complete name                            : i.am.a.killer.2016.bdrip.x264-rovers.mkv
Format                                   : Matroska
Format version                           : Version 4 / Version 2
File size                                : 725 MiB
Duration                                 : 1 h 50 min
Overall bit rate                         : 922 kb/s
Encoded date                             : UTC 2017-08-10 21:08:42
Writing application                      : mkvmerge v11.0.0 ('Alive') 64bit
Writing library                          : libebml v1.3.4 + libmatroska v1.4.5

Video
ID                                       : 1
Format                                   : AVC
Format/Info                              : Advanced Video Codec
Format profile                           : [email protected]
Format settings, CABAC                   : Yes
Format settings, ReFrames                : 5 frames
Codec ID                                 : V_MPEG4/ISO/AVC
Duration                                 : 1 h 50 min
Bit rate                                 : 801 kb/s
Width                                    : 720 pixels
Height                                   : 302 pixels
Display aspect ratio                     : 2.40:1
Frame rate mode                          : Constant
Frame rate                               : 25.000 FPS
Color space                              : YUV
Chroma subsampling                       : 4:2:0
Bit depth                                : 8 bits
Scan type                                : Progressive
Bits/(Pixel*Frame)                       : 0.147
Stream size                              : 630 MiB (87%)
Writing library                          : x264 core 152 r2851 ba24899
Encoding settings                        : cabac=1 / ref=5 / deblock=1:0:0 / analyse=0x3:0x113 / me=hex / subme=8 / psy=1 / psy_rd=1.00:0.00 / mixed_ref=1 / me_range=16 / chroma_me=1 / trellis=2 / 8x8dct=1 / cqm=0 / deadzone=21,11 / fast_pskip=1 / chroma_qp_offset=-2 / threads=9 / lookahead_threads=1 / sliced_threads=0 / nr=0 / decimate=1 / interlaced=0 / bluray_compat=0 / constrained_intra=0 / bframes=3 / b_pyramid=2 / b_adapt=1 / b_bias=0 / direct=3 / weightb=1 / open_gop=0 / weightp=2 / keyint=250 / keyint_min=25 / scenecut=40 / intra_refresh=0 / rc_lookahead=50 / rc=crf / mbtree=1 / crf=19.0 / qcomp=0.60 / qpmin=0 / qpmax=69 / qpstep=4 / ip_ratio=1.40 / aq=1:1.00
Language                                 : Polish
Default                                  : Yes
Forced                                   : No
Color range                              : Limited
Matrix coefficients                      : BT.709

Audio
ID                                       : 2
Format                                   : AAC
Format/Info                              : Advanced Audio Codec
Format profile                           : LC
Codec ID                                 : A_AAC
Duration                                 : 1 h 50 min
Bit rate                                 : 118 kb/s
Channel(s)                               : 2 channels
Channel positions                        : Front: L R
Sampling rate                            : 48.0 kHz
Frame rate                               : 46.875 FPS (1024 spf)
Compression mode                         : Lossy
Delay relative to video                  : 9 ms
Stream size                              : 93.0 MiB (13%)
Language                                 : Polish
Default                                  : Yes
Forced                                   : No

Text
ID                                       : 3
Format                                   : UTF-8
Codec ID                                 : S_TEXT/UTF8
Codec ID/Info                            : UTF-8 Plain Text
Duration                                 : 1 h 46 min
Bit rate                                 : 45 b/s
Count of elements                        : 1098
Stream size                              : 35.5 KiB (0%)
Language                                 : English
Default                                  : Yes
Forced                                   : Yes






Click To View Screenshot

Click To View Screenshot

Click To View Screenshot
YouTube Video:
Category:Movies
Language:English  English
Total Size:725.31 MB
Info Hash:CD241A9857633611C0C7C92D2240D70974FCD320
Added By:Simmoncelli VIPMovie Pirate
Date Added:11-08-2017 11:51:47
Torrent Status:Torrent Verified


Ratings:Not Yet Rated (Log in to rate it)


Tracker:
udp://tracker.coppersurfer.tk:6969/announce

This Torrent also has backup trackers
URLSeedersLeechersCompleted
udp://tracker.coppersurfer.tk:6969/announce362449
udp://tracker.pirateparty.gr:6969/announce362449
udp://shadowshq.yi.org:6969/announce342454
udp://eddie4.nl:6969/announce342454
udp://tracker.leechers-paradise.org:6969/announce342454
udp://tracker.opentrackr.org:1337/announce181234
udp://p4p.arenabg.ch:1337/announce15916
udp://p4p.arenabg.com:1337/announce15916
udp://9.rarbg.me:2710/announce141125
udp://9.rarbg.to:2710/announce141125
udp://ipv4.tracker.harry.lu:80/announce151116
udp://tracker.grepler.com:6969/announce000
udp://public.popcorn-tracker.org:6969/announce17718
udp://tracker.opentrackr.org:1337/announce181234
udp://tracker.zer0day.to:1337/announce000


File List: 





Comments
No comments still posted