GloDLS.to - Download Movies, TV, Games and Other Torrents Free RSS 2.0enGloDLS.to - Download Movies, TV, Games and Other Torrents FreeGloDLS.to - Download Movies, TV, Games and Other Torrents Free RSS Feedhttp://glodls.toCopyright GloDLS.to - Download Movies, TV, Games and Other Torrents FreeMon, 21 Aug 2017 18:36:45 +0100 Big Booty Girls XXX DVDRip x264-STARLETS http://glodls.to/torrent.php?id=2726236 http://glodls.to/torrent.php?id=2726236 Mon, 21 Aug 2017 17:35:55 +0100 Adult XXX
[url=https://pixxxels.org/image/5gzswg6jj/]https://pixxxels.org/image/5gzswg6jj/[/url]
[url=https://pixxxels.org/image/hucn3cw7z/]https://pixxxels.org/image/hucn3cw7z/[/url]
[url=https://pixxxels.org/image/6kjx8er6n/]https://pixxxels.org/image/6kjx8er6n/[/url]

oPi
RELEASE.DATE____2017.08.21 iNFo
DVD.DATE________2017.08.07
PROD.YEAR_______2017
SOURCE__________DVD
AUDIO.BITRATE___113 kb/s AAC (LC)
VIDEO.BITRATE___1703 kb/s @ CRF19
COMPANY_________New Sensations

SiZE____________29x50MB
RUNNING.TIME____1h44m29s
CODEC___________x264
GENRE___________All Sex

pLOt

Story : Make way for the big booty girls! Harley Jade,
Daisy Stone, Assh Lee and Sarah Vandella are here,
and they can't wait to put their heavenly asses to
work! So let them show off the goods in all new
scenes of ball draining sex, because a beautiful
ass is a terrible thing to waste.!
Cast : Ramon Nomar, James Deen, Sarah Vandella, Chad White,
Markus Dupree, Assh Lee, Karlee Grey, Brittany Shae,
Harley Jade, Daisy Stone
nEWs
&&
gREETiNGs

WE ARE THE STARLETS.
HERE TO BRING YOU HIGH QUALITY
PORN FOR YOUR PLEASURE.

AFFECTION BLOW CONDITION COCAIN

DoggPound DPXXXHD EDGEISO SHOCKISO
oPi
20 09

Screens:
[url=https://pixxxels.org/image/nz45goobj/]https://pixxxels.org/image/nz45goobj/[/url] ]]>
[Private] Mary Kalisy (teen brunette- gets a facial cumshot in debut - 21 08 17) http://glodls.to/torrent.php?id=2726235 http://glodls.to/torrent.php?id=2726235 Mon, 21 Aug 2017 17:33:33 +0100 Adult XXX
Genre :- Blowjob, All Sex, 1080p]

Screenshot :-

[url=http://imgtorrnt.in/view.php?id=18ryjZU][color=green] View Screen 1 [/color] [/url]

[url=http://imgtorrnt.in/view.php?id=XVo9I9E][color=green] View Screen 2 [/color] [/url]

[img]http://s4.pic4you.ru/y2017/08-21/27034/6083176.jpeg[/img]

]]>
[Bang! Confessions - Bang] Lena Paul (Lena Paul Gets Fucked Good After Sluethily Seducing Neighbor - 20 08 17) http://glodls.to/torrent.php?id=2726234 http://glodls.to/torrent.php?id=2726234 Mon, 21 Aug 2017 17:29:22 +0100 Adult XXX
Genre :- Big Tits, All Sex, 720p]

Screenshot :-

[url=http://imgtorrnt.in/view.php?id=5fI19jA][color=green] View Screen 1 [/color] [/url]

[url=http://imgtorrnt.in/view.php?id=z7aG9TP][color=green] View Screen 2 [/color] [/url]

[img]http://s4.pic4you.ru/y2017/08-14/27034/6078708.jpeg[/img]

]]>
[GloryHoleSecrets] Phoebe (Phoebe s First Gloryhole Video - August 18- 2017) http://glodls.to/torrent.php?id=2726233 http://glodls.to/torrent.php?id=2726233 Mon, 21 Aug 2017 17:24:25 +0100 Adult XXX
Genre :- 16 cumshots, Blowjobs, Brunettes, Cum in mouth, Cum on tits, Cum Swallow, Deepthroat, Interracial, Piercing, Shaved, 540p]

Screenshot :-

[url=http://imgtorrnt.in/view.php?id=IDLoGXB][color=green] View Screen 1 [/color] [/url]

[url=http://imgtorrnt.in/view.php?id=7Zn9g3f][color=green] View Screen 2 [/color] [/url]

[img]http://s4.pic4you.ru/y2017/08-20/27034/6082830.jpeg[/img]

]]>
Sure Thing [X-Rated Films]2017/DVDRip http://glodls.to/torrent.php?id=2726232 http://glodls.to/torrent.php?id=2726232 Mon, 21 Aug 2017 17:21:34 +0100 Adult XXX [center][URL=http://imagedecode.com/img-599b1597b9359.html][IMG]http://imagedecode.com/upload/small/2017/08/21/599b1597b9321.jpg[/IMG][/URL]
[size=4]

Stars: Heather Vaughn, Amy Fisher, Nikita Denise, Dakoda Brookes
Category: All Sex, Big Tits, Hardcore
File size: 1.27 GiB
Duration: 1h 38mn

[b]SCREENS:[/b]

[url]http://imagedecode.com/img-599b15a2d42e0.html[/url]
[url]https://xeimg.yt/img-599b15c56d44b.html[/url]

[b]SHOOT:[/b]
[url]http://imageteam.org/img-599b16791bdcc.html[/url]
[/size]
[/center] ]]>
FuckingAwesome.17.08.21.Kenzie.Taylor.XXX.1080p.MP4-KTR[N1C] http://glodls.to/torrent.php?id=2726226 http://glodls.to/torrent.php?id=2726226 Mon, 21 Aug 2017 17:09:06 +0100 Adult XXX FuckingAwesome.17.08.21.Kenzie.Taylor.XXX.1080p.MP4-KTR


[Format]: MPEG-4
[Duration]: 32mn 59s
[Resolution]: 1 920 x 1 080 pixels
[Display aspect ratio]: 16:9
[Frame rate mode]: Constant
[Frame rate]: 23.976 fps


[color=green][b]#N1C -> To avoid fakes, ALWAYS check that the torrent was added by NO1CARES[/b][/color]




[color=green][b]Help us by donating with Bitcoin: 1Pgwp16gmLHmPzgjJLxZnMw7YeqiUekUoe[/b][/color]

[b]Screens...[/b]
[url]http://HotImage.uk/img-599b1384f22bf.html[/url]
[url]http://HotImage.uk/img-599b138512d75.html[/url]
[url]http://HotImage.uk/img-599b1385213a0.html[/url]
[url]http://HotImage.uk/img-599b13852d56d.html[/url] ]]>
FuckingAwesome.17.08.21.Kenzie.Taylor.XXX.1080p.MP4-KTR http://glodls.to/torrent.php?id=2726225 http://glodls.to/torrent.php?id=2726225 Mon, 21 Aug 2017 17:08:43 +0100 Adult XXX
{Duration} : 32 min 59 s
{Format} : MPEG-4
{Resolution} : 1920 x 1080 pixels
{Aspect Ratio} : 16:9
{Frame Rate} : 23.976 fps

[b]Thumbnails : -[/b]

[URL=https://www.sizzlingclicks.com/image/U3dZn][IMG]https://www.sizzlingclicks.com/images/2017/08/21/U3dZn.th.jpg[/IMG][/URL]
[b][URL]https://www.sizzlingclicks.com/image/U3dZn[/URL][/b]
[b][URL]https://www.sizzlingclicks.com/image/U3tdw[/URL][/b]
[b][URL]https://www.sizzlingclicks.com/image/U3KyM[/URL][/b]
[b][URL]https://www.sizzlingclicks.com/image/U3BEq[/URL][/b] ]]>
World Of BangBros - Bangbros Beauties Vol 4 [2017] DVDRip mp4 http://glodls.to/torrent.php?id=2726224 http://glodls.to/torrent.php?id=2726224 Mon, 21 Aug 2017 17:08:24 +0100 Adult XXX
1.61 GB

Screens

[url]http://img.img-central.com/image/9Bnup[/url]
[url]http://img.img-central.com/image/9BGNC[/url]
[url]http://img.img-central.com/image/9BN08[/url]

[img]https://s4.postimg.org/d8g2cv6v1/Jules_1.jpg[/img]
]]>
Reality Kings - Fucking For My Rent 3 [2017] DVDRip mp4 http://glodls.to/torrent.php?id=2726223 http://glodls.to/torrent.php?id=2726223 Mon, 21 Aug 2017 17:02:36 +0100 Adult XXX
1.58 GB

Screens

[url]http://img.img-central.com/image/99Zqu[/url]
[url]http://img.img-central.com/image/99852[/url]
[url]http://img.img-central.com/image/99RrG[/url]

[img]https://s3.postimg.org/oetydr103/Reality_1.jpg[/img]

]]>
Kendra On Top S06E12 720p WEB h264-CookieMonster http://glodls.to/torrent.php?id=2726181 http://glodls.to/torrent.php?id=2726181 Mon, 21 Aug 2017 17:00:29 +0100 TV http://www.tvrage.com/schedule.php?show_yesterday=1. ]]> Holy War Series 1 2of5 Crusade To Jerusalem 720p HDTV x264 AAC mp4 http://glodls.to/torrent.php?id=2726180 http://glodls.to/torrent.php?id=2726180 Mon, 21 Aug 2017 17:00:27 +0100 TV http://www.tvrage.com/schedule.php?show_yesterday=1. ]]> Candy Crush S01E07 WEB x264-TBS http://glodls.to/torrent.php?id=2726179 http://glodls.to/torrent.php?id=2726179 Mon, 21 Aug 2017 17:00:24 +0100 TV http://www.tvrage.com/schedule.php?show_yesterday=1. ]]> Dragons Den UK S15E00 Meet The Dragons HDTV x264-PLUTONiUM http://glodls.to/torrent.php?id=2726178 http://glodls.to/torrent.php?id=2726178 Mon, 21 Aug 2017 17:00:20 +0100 TV http://www.tvrage.com/schedule.php?show_yesterday=1. ]]> Farmhouse Rules S06E05 Heres to Another 250 Years HDTV x264-W4F http://glodls.to/torrent.php?id=2726177 http://glodls.to/torrent.php?id=2726177 Mon, 21 Aug 2017 17:00:17 +0100 TV http://www.tvrage.com/schedule.php?show_yesterday=1. ]]> Last Chance High S01E02 HDTV x264-W4F http://glodls.to/torrent.php?id=2726176 http://glodls.to/torrent.php?id=2726176 Mon, 21 Aug 2017 17:00:15 +0100 TV http://www.tvrage.com/schedule.php?show_yesterday=1. ]]> Trishas Southern Kitchen S07E11 Recipe Swap HDTV x264-W4F http://glodls.to/torrent.php?id=2726175 http://glodls.to/torrent.php?id=2726175 Mon, 21 Aug 2017 17:00:12 +0100 TV http://www.tvrage.com/schedule.php?show_yesterday=1. ]]> The 100000 Dollar Pyramid 2016 S02E10 WEB x264-TBS http://glodls.to/torrent.php?id=2726174 http://glodls.to/torrent.php?id=2726174 Mon, 21 Aug 2017 17:00:09 +0100 TV http://www.tvrage.com/schedule.php?show_yesterday=1. ]]> Trishas Southern Kitchen S09E08 Coffee Talk 720p HDTV x264-W4F http://glodls.to/torrent.php?id=2726173 http://glodls.to/torrent.php?id=2726173 Mon, 21 Aug 2017 17:00:06 +0100 TV http://www.tvrage.com/schedule.php?show_yesterday=1. ]]> The Immortal Life of Henrietta Lacks 2017 BRRip XviD AC3-EVO http://glodls.to/torrent.php?id=2726172 http://glodls.to/torrent.php?id=2726172 Mon, 21 Aug 2017 16:56:12 +0100 Movies COVER:
http://tinizo.com/upload/small/2017/08/21/599b10a96ca13.jpg

ACTORS:
Renée Elise Goldsberry, Sylvia Grace Crim, Reed Birney, Karen Wheeling Reynolds, John C. Vennema, Chasiti Ferrell,

RELEASED:
22 April 2017

IMDB: http://www.imdb.com/title/tt5686132/



Size: 1453795910 bytes (1.35 GiB), duration: 01:32:38, avg.bitrate: 2093 kb/s
Audio: ac3, 48000 Hz, 5:1, 448 kb/s
Video: mpeg4, yuv420p, 720x400, 23.98 fps(r)




SCREENS:
[url=http://tinizo.com/img-599b10a9c2477.html][img]http://tinizo.com/upload/small/2017/08/21/599b10a9c243d.jpg[/img][/url]

[url]http://tinizo.com/img-599b10a9c713c.html[/url]

[url]http://tinizo.com/img-599b10a9c954c.html[/url]


DOWNLOAD AND ENJOY.

KEEP IT FOR LONG SEEDING TO HELP OTHERS


Thanks to : EVO
Movie Share ]]>
[TeensLoveHugeCocks - RealityKings] Veronica Vega - Veronica s Panties (19 08 2017) http://glodls.to/torrent.php?id=2726171 http://glodls.to/torrent.php?id=2726171 Mon, 21 Aug 2017 16:54:44 +0100 Adult XXX
Genre :- [Amateur, Cheating, Couples Fantasies, Blowjob, All Sex, Masturbation, Blowjob - POV, 1 on 1, Indoors] 720p

Screenshot :-

[url=http://imgtorrnt.in/view.php?id=Hi3WWlP][color=green] View Screen 1 [/color] [/url]

[url=http://imgtorrnt.in/view.php?id=t94bLtN][color=green] View Screen 2 [/color] [/url]

[img]http://s4.pic4you.ru/y2017/08-20/27034/6082833.jpeg[/img]

]]>
The.Immortal.Life.of.Henrietta.Lacks.2017.BRRip.XviD.AC3-EVO http://glodls.to/torrent.php?id=2726170 http://glodls.to/torrent.php?id=2726170 Mon, 21 Aug 2017 16:54:09 +0100 Movies
[b]ImDb: [URL]http://www.imdb.com/title/tt5686132[/URL][/b]

[url=https://www.sparrowpics.com/image/kbFon][img]https://www.sparrowpics.com/images/2017/07/04/kbFon.png[/img][/url]

[b]Complete name : The.Immortal.Life.of.Henrietta.Lacks.2017.BRRip.XviD.AC3-EVO.avi
Format : AVI
Format/Info : Audio Video Interleave
File size : 1.35 GiB
Duration : 1 h 32 min
Overall bit rate : 2 092 kb/s
Writing library : VirtualDub build 32593/release

Video
ID : 0
Format : MPEG-4 Visual
Format profile : Advanced Simple@L5
Format settings, BVOP : 2
Format settings, QPel : No
Format settings, GMC : No warppoints
Format settings, Matrix : Default (H.263)
Muxing mode : Packed bitstream
Codec ID : XVID
Codec ID/Hint : XviD
Duration : 1 h 32 min
Bit rate : 1 635 kb/s
Width : 720 pixels
Height : 400 pixels
Display aspect ratio : 16:9
Frame rate : 23.976 (24000/1001) FPS
Color space : YUV
Chroma subsampling : 4:2:0
Bit depth : 8 bits
Scan type : Progressive
Compression mode : Lossy
Bits/(Pixel*Frame) : 0.237
Stream size : 1.06 GiB (78%)
Writing library : XviD 66

Audio
ID : 1
Format : AC-3
Format/Info : Audio Coding 3
Format settings, Endianness : Big
Codec ID : 2000
Duration : 1 h 32 min
Bit rate mode : Constant
Bit rate : 448 kb/s
Channel(s) : 6 channels
Channel positions : Front: L C R, Side: L R, LFE
Sampling rate : 48.0 kHz
Frame rate : 31.250 FPS (1536 spf)
Bit depth : 16 bits
Compression mode : Lossy
Stream size : 297 MiB (21%)
Alignment : Aligned on interleaves
Interleave, duration : 42 ms (1.00 video frame)
Interleave, preload duration : 512 ms
Service kind : Complete Main[/b]

[url=https://www.sparrowpics.com/image/kbJ5y][img]https://www.sparrowpics.com/images/2017/07/04/kbJ5y.png[/img][/url]

[URL=https://www.sparrowpics.com/image/Q00ee][IMG]https://www.sparrowpics.com/images/2017/08/21/Q00ee.th.jpg[/IMG][/URL]

[URL=https://www.sparrowpics.com/image/Q0Tws][b]Click To View Screenshot[/b][/URL]

[URL=https://www.sparrowpics.com/image/Q06Rf][b]Click To View Screenshot[/b][/URL]

[URL=https://www.sparrowpics.com/image/Q0Ab5][b]Click To View Screenshot[/b][/URL][/center] ]]>
The.Immortal.Life.of.Henrietta.Lacks.2017.BRRip.XviD.AC3-EVO http://glodls.to/torrent.php?id=2726169 http://glodls.to/torrent.php?id=2726169 Mon, 21 Aug 2017 16:51:55 +0100 Movies [color=red][b]
The.Immortal.Life.of.Henrietta.Lacks.2017.BRRip.XviD.AC3-EVO

[/b][/color]


IMDb: http://www.imdb.com/title/tt5686132/





[url=https://boltimg.com/image/t52z][img]https://boltimg.com/images/t52z.png[/img][/url]



[color=green][b]
General

(Duration): 1h 32mn
(FileSize): 1.35 GiB



Audio

(Format): AC-3 - Audio Coding 3
(Codec): AC3



Video

(Format): MPEG-4 Visual -
(Media): video/MP4V-ES
(Format): XviD
(Resolution): 720x400 px
(AspectRatio): 16:9
(FrameRate): 23.976 fps




[/b][/color]


[url=https://boltimg.com/image/tzTE][img]https://boltimg.com/images/tzTE.png[/img][/url]



[color=purple][b](Click to enlarge)[/b][/color]

[url=https://boltimg.com/image/mN6oG][img]https://boltimg.com/images/mN6oG.th.jpg[/img][/url] [url=https://boltimg.com/image/mNEnF][img]https://boltimg.com/images/mNEnF.th.jpg[/img][/url] [url=https://boltimg.com/image/mNHqb][img]https://boltimg.com/images/mNHqb.th.jpg[/img][/url] [url=https://boltimg.com/image/mNYYN][img]https://boltimg.com/images/mNYYN.th.jpg[/img][/url] [url=https://boltimg.com/image/mNfS7][img]https://boltimg.com/images/mNfS7.th.jpg[/img][/url] [url=https://boltimg.com/image/mN20f][img]https://boltimg.com/images/mN20f.th.jpg[/img][/url]

[/center]
]]>
[RKPrime - RealityKings] Holly Hendrix - Roadside Rescue (17 08 2017) http://glodls.to/torrent.php?id=2726168 http://glodls.to/torrent.php?id=2726168 Mon, 21 Aug 2017 16:50:55 +0100 Adult XXX
Genre :- [Amateur, Car, Outside, Indoors, Blowjob, All Sex, Pussy Licking, Wet, Gagging, Ass Worship, 1 on 1] 432p

Screenshot :-

[url=http://imgtorrnt.in/view.php?id=AZUd2HS][color=green] View Screen 1 [/color] [/url]

[url=http://imgtorrnt.in/view.php?id=AUyGlAK][color=green] View Screen 2 [/color] [/url]

[img]http://s4.pic4you.ru/y2017/08-17/27034/6080471.jpeg[/img]

]]>
Takers [Wicked] **Split Scenes**(NEW***21 08 2017) http://glodls.to/torrent.php?id=2726167 http://glodls.to/torrent.php?id=2726167 Mon, 21 Aug 2017 16:49:24 +0100 Adult XXX [size=4]

Stars: Christiana Cinn, Asa Akira, Kleio Valentien, Sarah Vandella, Ana Foxxx, Marcus London, Derrick Pierce, Brad Armstrong, Ryan Driller, Xander Corvus
Category: All Sex, Blowjob, Hardcore, Interracial, Big Tits, Big Dick, Pornstar
File size: 1.73 GB
Duration: 02:59:02

[b]SCREENS:[/b]

[url]http://imageteam.org/img-599a8cd105e40.html[/url]
[url]http://damimage.com/img-599a8ce6586d4.html[/url]
[url]http://imgclick.net/vaa0xpfky7gd/3.jpg.html[/url]
[url]http://imagedecode.com/img-599a8d431c878.html[/url]
[url]https://xeimg.yt/img-599b0bcb54efc.html[/url]
[url]https://img.yt/img-599a8d6aa25bf.html[/url]

[/size]
[/center]
]]>
[FirstTimeAuditions - RealityKings] Aria Skye - Panty Audition (17 08 2017) http://glodls.to/torrent.php?id=2726166 http://glodls.to/torrent.php?id=2726166 Mon, 21 Aug 2017 16:47:26 +0100 Adult XXX
Genre :- [Amateur, Blowjob, All Sex, Masturbation, Doggystyle, Reverse Cowgirl, Cowgirl, Blowjob - POV, Side Fuck, Missionary, 1 on 1, Indoors] 432p

Screenshot :-

[url=http://imgtorrnt.in/view.php?id=x7yCmkw][color=green] View Screen 1 [/color] [/url]

[url=http://imgtorrnt.in/view.php?id=iojqkDa][color=green] View Screen 2 [/color] [/url]

[img]http://s4.pic4you.ru/y2017/08-17/27034/6080465.jpeg[/img]

]]>
Game of Thrones S07E06 PROPER 720p HEVC x265-MeGusta http://glodls.to/torrent.php?id=2726165 http://glodls.to/torrent.php?id=2726165 Mon, 21 Aug 2017 16:46:13 +0100 TV
Game.of.Thrones.S07E06.PROPER.720p.HEVC.x265-MeGusta.mkv

General Information
Duration: 01:09:59
Release size: 444 MB
Video Bitrate: n/a
Frame rate: 23.976 Fps
MP3 2ch CBR: 128kbps
Video resolution: 1280x718 (16:9)

Extra infos:
Format: Matroska / WebM
Encoder: Lavf57.67.100

Video info:
Frame rate: 24000/1001
Codec name: H.265 / HEVC (High Efficiency Video Coding)
Codec type: video
Codec height: 720
Codec width: 1280
Display ratio: 640:359
Pixel format: yuv420p
Profile: Main
Language: eng

Audio info:
Channel layout: stereo
Codec name: aac
Codec type: audio
Sample rate: 48000

Screens:
[img]https://extraimage.net/images/2017/08/21/a723cd0e97a7d511bd7d7a3e15a00f8e.png[/img]
[img]https://extraimage.net/images/2017/08/21/2dc6c38096c1577cf8dc485bb33e5836.png[/img]
[img]https://extraimage.net/images/2017/08/21/c7a3b35aad6088339b3814d1ee064eed.png[/img]
[img]https://extraimage.net/images/2017/08/21/d8d6657c2be1308ebe5b5083047b042c.png[/img] ]]>
[MyFriendsHotGirl - NaughtyAmerica] Evelin Stone (23119 - 17 08 2017) http://glodls.to/torrent.php?id=2726164 http://glodls.to/torrent.php?id=2726164 Mon, 21 Aug 2017 16:43:53 +0100 Adult XXX
Genre :- [American, Blow Job, Brunette, Facial, Green Eyes, Natural Tits, Shaved, Straight, Tattoos] 360p

Screenshot :-

[url=http://imgtorrnt.in/view.php?id=zU8zOyg][color=green] View Screen 1 [/color] [/url]

[url=http://imgtorrnt.in/view.php?id=so6zsCE][color=green] View Screen 2 [/color] [/url]

[img]http://s4.pic4you.ru/y2017/08-17/27034/6080440.jpeg[/img]

]]>
Tiffany Doll - Creampie sex for horny French babe (21 08 2017) 10 http://glodls.to/torrent.php?id=2726163 http://glodls.to/torrent.php?id=2726163 Mon, 21 Aug 2017 16:42:55 +0100 Adult XXX [GirlsDoPorn] 20 Years Old (E433 - 18 08 2017) rq mp4 http://glodls.to/torrent.php?id=2726162 http://glodls.to/torrent.php?id=2726162 Mon, 21 Aug 2017 16:40:48 +0100 Adult XXX Audio: aac, 48000 Hz, 2 channels, s16, 106 kb/s (eng)
Video: h264, yuv420p, 720x404, 1193 kb/s, 29,97 fps(r) (eng)

http://www.pixsense.net/site/v/2690131#51&2690131

]]>
Angel Rush & Sicilia (Czech VR 153 - First Lesbian Experience Onc http://glodls.to/torrent.php?id=2726161 http://glodls.to/torrent.php?id=2726161 Mon, 21 Aug 2017 16:40:43 +0100 Adult XXX [TheWhiteBoxxx - PornDoePremium] Katy Rose (Stunning Czech babe Katy Rose gets cum covered in hot romantic fuck - 2017-08-20) http://glodls.to/torrent.php?id=2726160 http://glodls.to/torrent.php?id=2726160 Mon, 21 Aug 2017 16:40:15 +0100 Adult XXX
Genre :- [All Sex, Blowjobs, 720p]

Screenshot :-

[url=http://imgtorrnt.in/view.php?id=zPTMcrW][color=green] View Screen 1 [/color] [/url]

[url=http://imgtorrnt.in/view.php?id=M7Ehji6][color=green] View Screen 2 [/color] [/url]

[img]http://s4.pic4you.ru/y2017/08-20/27034/6082817.jpeg[/img]

]]>
Nancy, Foxi - It Turns Me On When You Choke Me (21 08 2017) 1080p http://glodls.to/torrent.php?id=2726159 http://glodls.to/torrent.php?id=2726159 Mon, 21 Aug 2017 16:38:03 +0100 Adult XXX [21Naturals - 21Sextury] Julia Red (No Restrictions - 20 08 2017) http://glodls.to/torrent.php?id=2726158 http://glodls.to/torrent.php?id=2726158 Mon, 21 Aug 2017 16:36:32 +0100 Adult XXX
Genre :- [Blowjob, Babes, Blonde, One on one, Cumshot, Natural tits, Massage, 720p]

Screenshot :-

[url=http://imgtorrnt.in/view.php?id=nrfWWcR][color=green] View Screen 1 [/color] [/url]

[url=http://imgtorrnt.in/view.php?id=xkEDbkT][color=green] View Screen 2 [/color] [/url]

[img]http://s4.pic4you.ru/y2017/08-20/27034/6082492.jpeg[/img]

]]>
Cherry Kiss - Glamour model in sweaty couch fuck (21 08 2017) 108 http://glodls.to/torrent.php?id=2726157 http://glodls.to/torrent.php?id=2726157 Mon, 21 Aug 2017 16:36:07 +0100 Adult XXX Caroline De Jaie & Rebecca Sharon - anal fisting for two whores w http://glodls.to/torrent.php?id=2726156 http://glodls.to/torrent.php?id=2726156 Mon, 21 Aug 2017 16:33:47 +0100 Adult XXX [SneakySex - RealityKings] Daisy Stone - Fucking The Cable Guy (19 08 2017) http://glodls.to/torrent.php?id=2726155 http://glodls.to/torrent.php?id=2726155 Mon, 21 Aug 2017 16:33:08 +0100 Adult XXX
Genre :- [Living Room, Indoors, Blowjob, All Sex, Finger Banging, Pussy Licking, Ass Worship, Work Fantasies, 1 on 1] 720p

Screenshot :-

[url=http://imgtorrnt.in/view.php?id=a9AmaIR][color=green] View Screen 1 [/color] [/url]

[url=http://imgtorrnt.in/view.php?id=G427sLi][color=green] View Screen 2 [/color] [/url]

[img]http://s4.pic4you.ru/y2017/08-19/27034/6081974.jpeg[/img]

]]>
The.Immortal.Life.of.Henrietta.Lacks.2017.1080p.BluRay.x264-ROVERS[EtHD] http://glodls.to/torrent.php?id=2726154 http://glodls.to/torrent.php?id=2726154 Mon, 21 Aug 2017 16:32:53 +0100 Movies EtHD - EtHD - Et High-Definition Movies

-----------------------------------------------------

[url=https://extraimage.net/image/TT9t][img]https://extraimage.net/images/2017/08/21/7360ebeffd91b037c5b4bd74fe3b07b0.jpg[/img][/url]

The.Immortal.Life.of.Henrietta.Lacks.2017.1080p.BluRay.x264-ROVERS

http://www.imdb.com/title/tt5686132/

[Video Bitrate]:.............: 10.1mb/s
[Duration]:.............: 1 h 32 min
[Video Codec]:.............: AVC
[Resolution]:.............: 1920x1080 px
[Aspect Ratio]:.............: 16:9
[Audio Codec]:.............: DTS
[Audio Bitrate]:.............: 1509kb/s
[Audio Channels]:.............: 5.1ch
[Audio Language]:.............: English

Genre .......................: Biography | Drama

[color=green][b]#EtHD -> To avoid fakes, ALWAYS check that the torrent was added by EtHD [/b][/color]



[color=green][b]To keep us going Support us by donating Bitcoin: 3MDamEmgKepqagtQe9eEdQ3NCrWEWjhoL5[/b][/color]

[b]Screens...[/b]

[url]https://extraimage.net/image/TT9p[/url]
[url]https://extraimage.net/image/TT9G[/url]
[url]https://extraimage.net/image/TT9P[/url]
[url]https://extraimage.net/image/TT9X[/url]
[url]https://extraimage.net/image/TT95[/url]
[url]https://extraimage.net/image/TT9o[/url]
]]>
Simone - Cheating Wife Gets More Cock Than Exepected 1080p http://glodls.to/torrent.php?id=2726153 http://glodls.to/torrent.php?id=2726153 Mon, 21 Aug 2017 16:31:03 +0100 Adult XXX [NaughtyBookworms - NaughtyAmerica] Jade Amber (23111 - 17 08 2017) http://glodls.to/torrent.php?id=2726152 http://glodls.to/torrent.php?id=2726152 Mon, 21 Aug 2017 16:29:24 +0100 Adult XXX
Genre :- [American, Blow Job, Brunette, Bubble Butt, Caucasian, Coeds, Cum in Mouth, Facial, All Sex, Medium Natural Tits, Piercings, Shaved, Young] 360p

Screenshot :-

[url=http://imgtorrnt.in/view.php?id=RFivsWU][color=green] View Screen 1 [/color] [/url]

[url=http://imgtorrnt.in/view.php?id=Uvu72oZ][color=green] View Screen 2 [/color] [/url]

[img]http://s4.pic4you.ru/y2017/08-17/27034/6080425.jpeg[/img]

]]>
FakeAgent - Cherry Kiss (Glamour model in sweaty couch fuck) NEW 21 August 2017 http://glodls.to/torrent.php?id=2726151 http://glodls.to/torrent.php?id=2726151 Mon, 21 Aug 2017 16:28:53 +0100 Adult XXX
http://imggold.org/m2a2i0kd874h/fa.jpg.html

http://imgtornado.com/img-599b07919a66a.html

Cherry Kiss walked into my office looking like a million bucks. A tall, leggy blonde, she had the perfect body for modeling, and a big smile on her face too. Cherry told me how she had done some smaller glamour shoots, but really needed more work, and how she had heard our agency is the best. Well, that's certainly true, if you're a hot chick looking to get your pussy pounded! I had Cherry strip out of her clothes and show me her incredible tits and round ass. She said she would do anything for a job, which is always code for "Please fuck me hard!" She was so intense that by the time I gave her a thick sperm deposit in her tight pussy, we were both dripping wet from sweat. Another successful casting! ]]>
Kolja and Vova, gay teens - 245 HD images http://glodls.to/torrent.php?id=2726150 http://glodls.to/torrent.php?id=2726150 Mon, 21 Aug 2017 16:26:46 +0100 Adult XXX [BackRoomFacials - BangBros] Chrissy Greene - Party Girl fucked (brf11791 - 17 08 2017) http://glodls.to/torrent.php?id=2726148 http://glodls.to/torrent.php?id=2726148 Mon, 21 Aug 2017 16:25:36 +0100 Adult XXX
Genre :- [Amateur, Big Tits, Blowjob, Brunette, Busty, Casting, Cow Girl, Cum In Mouth, Dildo, Facial, Hairy, Missionary, Riding, Teen, Vaginal, White, Young] 480p

Screenshot :-

[url=http://imgtorrnt.in/view.php?id=JIEFFtL][color=green] View Screen 1 [/color] [/url]

[url=http://imgtorrnt.in/view.php?id=XXpg1Cx][color=green] View Screen 2 [/color] [/url]

[img]http://s4.pic4you.ru/y2017/08-17/27034/6080421.jpeg[/img]

]]>
Tippu 2015 Hindi Dubbed 720p WEB-DL x264 AAC { TaRa } http://glodls.to/torrent.php?id=2726147 http://glodls.to/torrent.php?id=2726147 Mon, 21 Aug 2017 16:25:13 +0100 Movies [b][size=5][color=#ff0080] Tippu 2015 Hindi Dubbed 720p WEB-DL x264 AAC { TaRa } [/color][/size][/b]
[img]https://worldimages.gallery/images/2017/08/02/Tippu-2015.jpg[/img]
[img]https://i.imgur.com/P1wLykr.png[/img]

[quote][size=2][color=#00b3b3][b]===================================================================
General
Complete name : Tippu 2015 Hindi Dubbed 720p WEB-DL x264 AAC { TaRa }
Format : Matroska
Format version : Version 4 / Version 2
File size : 989 MiB
Duration : 1h 38mn
Overall bit rate : 1 403 Kbps
===================================================================
Video
ID : 1
Format : AVC
Format/Info : Advanced Video Codec
Format profile : High@L3.1
Format settings, CABAC : Yes
Format settings, ReFrames : 4 frames
Codec ID : V_MPEG4/ISO/AVC
Duration : 1h 38mn
Nominal bit rate : 1 200 Kbps
Width : 1 280 pixels
Height : 544 pixels
Display aspect ratio : 2.35:1
Frame rate mode : Constant
Frame rate : 25.000 fps
Color space : YUV
Chroma subsampling : 4:2:0
Bit depth : 8 bits
Scan type : Progressive
Bits/(Pixel*Frame) : 0.069
Title : .....::::: TaRa :::::.....
Language : Hindi
Default : Yes
Forced : No
===================================================================
Audio
ID : 2
Format : AAC
Format/Info : Advanced Audio Codec
Format profile : LC
Codec ID : A_AAC
Duration : 1h 38mn
Channel(s) : 2 channels
Channel positions : Front: L R
Sampling rate : 48.0 KHz
Frame rate : 46.875 fps (1024 spf)
Compression mode : Lossy
Delay relative to video : -21ms
Title : .....::::: TaRa :::::.....
Language : Hindi
Default : Yes
Forced : No
===================================================================

[/quote][/b][/color][/size]

[img]https://www.jiopic.com/images/2017/06/04/2016-11-05_170245.png[/img]

[url=https://worldimages.gallery/image/LAF67][img]https://worldimages.gallery/images/2017/08/02/vlcsnap-error000.th.png[/img][/url] [url=https://worldimages.gallery/image/LAGJk][img]https://worldimages.gallery/images/2017/08/02/vlcsnap-error003.th.png[/img][/url] [url=https://worldimages.gallery/image/LApz8][img]https://worldimages.gallery/images/2017/08/02/vlcsnap-error058.th.png[/img][/url] [url=https://worldimages.gallery/image/LM1GP][img]https://worldimages.gallery/images/2017/08/02/vlcsnap-error326.th.png[/img][/url] [url=https://worldimages.gallery/image/LMTdT][img]https://worldimages.gallery/images/2017/08/02/vlcsnap-error364.th.png[/img][/url] [url=https://worldimages.gallery/image/LMVZ4][img]https://worldimages.gallery/images/2017/08/02/vlcsnap-error374.th.png[/img][/url] [url=https://worldimages.gallery/image/LM6DE][img]https://worldimages.gallery/images/2017/08/02/vlcsnap-error445.th.png[/img][/url] [url=https://worldimages.gallery/image/LMkQG][img]https://worldimages.gallery/images/2017/08/02/vlcsnap-error459.th.png[/img][/url] [url=https://worldimages.gallery/image/LMlU5][img]https://worldimages.gallery/images/2017/08/02/vlcsnap-error522.th.png[/img][/url] [url=https://worldimages.gallery/image/LMn0b][img]https://worldimages.gallery/images/2017/08/02/vlcsnap-error564.th.png[/img][/url] [url=https://worldimages.gallery/image/LMQ6i][img]https://worldimages.gallery/images/2017/08/02/vlcsnap-error610.th.png[/img][/url] [url=https://worldimages.gallery/image/LMaJR][img]https://worldimages.gallery/images/2017/08/02/vlcsnap-error654.th.png[/img][/url] [url=https://worldimages.gallery/image/LMe4e][img]https://worldimages.gallery/images/2017/08/02/vlcsnap-error656.th.png[/img][/url] [url=https://worldimages.gallery/image/LMwGg][img]https://worldimages.gallery/images/2017/08/02/vlcsnap-error684.th.png[/img][/url] [url=https://worldimages.gallery/image/LMMdX][img]https://worldimages.gallery/images/2017/08/02/vlcsnap-error740.th.png[/img][/url] [url=https://worldimages.gallery/image/LMbcn][img]https://worldimages.gallery/images/2017/08/02/vlcsnap-error824.th.png[/img][/url] [url=https://worldimages.gallery/image/LMdD0][img]https://worldimages.gallery/images/2017/08/02/vlcsnap-error926.th.png[/img][/url] [url=https://worldimages.gallery/image/LMCao][img]https://worldimages.gallery/images/2017/08/02/vlcsnap-error967.th.png[/img][/url] [url=https://worldimages.gallery/image/LMEX6][img]https://worldimages.gallery/images/2017/08/02/vlcsnap-error975.th.png[/img][/url]

[img]https://extraimage.net/images/2017/01/23/7f4ee9130941f6c16858c2472cb12fcb.png[/img]

[img]https://extraimage.net/images/2017/01/26/68bb62a0c73c0aba2d6d6e979f05833f.gif[/img]
[img]https://extraimage.net/images/2017/01/23/5acaf8416573ce74e10d4695e3a379c9.png[/img]
[img]https://extraimage.net/images/2017/01/26/11cb1f870af6f2c238ec96e701f9cc01.gif[/img]



[url=https://www.facebook.com/TaRaHQOfficial/][img]https://www.jiopic.com/images/2017/05/04/FindusonFacebookLogo.jpg[/img][/url]
[/center] ]]>
Lipstick Under My Burkha 2017 Hindi 720p Untuched WEB-DL x264 AAC { TaRa } http://glodls.to/torrent.php?id=2726146 http://glodls.to/torrent.php?id=2726146 Mon, 21 Aug 2017 16:23:41 +0100 Movies [b][size=4][color=#ff0080] Lipstick Under My Burkha 2017 Hindi 720p Untuched WEB-DL x264 AAC { TaRa }.mkv[/color][/size][/b]
[img]https://extraimage.net/images/2017/08/15/898743cff7a2f8fa172b5d1dc21b3aff.jpg[/img]
[img]https://i.imgur.com/P1wLykr.png[/img]

[quote][size=2][color=#00b3b3][b]===================================================================
General
Complete name : Lipstick Under My Burkha 2017 Hindi 720p Untuched WEB-DL x264 AAC { TaRa }.mkv
Format : Matroska
Format version : Version 4 / Version 2
File size : 1.35 GiB
Duration : 1 h 58 min
Overall bit rate : 1 621 kb/s
===================================================================
Video
ID : 1
Format : AVC
Format/Info : Advanced Video Codec
Format profile : Main@L3.1
Format settings, CABAC : Yes
Format settings, ReFrames : 4 frames
Codec ID : V_MPEG4/ISO/AVC
Duration : 1 h 58 min
Bit rate : 1 510 kb/s
Width : 1 280 pixels
Height : 544 pixels
Display aspect ratio : 2.35:1
Frame rate mode : Variable
Frame rate : 20.529 FPS
Color space : YUV
Chroma subsampling : 4:2:0
Bit depth : 8 bits
Scan type : Progressive
Bits/(Pixel*Frame) : 0.106
Stream size : 1.22 GiB (91%)
Title : .....::::: TaRa :::::.....
Writing library : x264 core 112
Language : Hindi
Default : Yes
Forced : No
===================================================================
Audio
ID : 2
Format : AAC
Format/Info : Advanced Audio Codec
Format profile : LC
Codec ID : A_AAC
Duration : 1 h 58 min
Bit rate : 150 kb/s
Channel(s) : 2 channels
Channel positions : Front: L R
Sampling rate : 44.1 kHz
Frame rate : 43.066 FPS (1024 spf)
Compression mode : Lossy
Stream size : 127 MiB (9%)
Title : .....::::: TaRa :::::.....
Language : Hindi
Default : Yes
Forced : No
===================================================================

[/quote][/b][/color][/size]

[img]https://www.jiopic.com/images/2017/06/04/2016-11-05_170245.png[/img]
[url=https://extraimage.net/image/Tw0m][img]https://extraimage.net/images/2017/08/15/9e1b9b77d58dd73db9f5af64778c5d44.th.png[/img][/url] [url=https://extraimage.net/image/Tw0i][img]https://extraimage.net/images/2017/08/15/46b1555c2a4ab75dc52129b58aea1a27.th.png[/img][/url] [url=https://extraimage.net/image/Tw0l][img]https://extraimage.net/images/2017/08/15/91eec19fc88954cf915dbc421ba72129.th.png[/img][/url] [url=https://extraimage.net/image/Tw0I][img]https://extraimage.net/images/2017/08/15/55391f09ca4b0a68e8f0718537664809.th.png[/img][/url] [url=https://extraimage.net/image/Tw0d][img]https://extraimage.net/images/2017/08/15/1fb06dcbad99979053aa1ee341fc68a6.th.png[/img][/url] [url=https://extraimage.net/image/Tw0b][img]https://extraimage.net/images/2017/08/15/6cd794acbe221656b8ede03432601ee9.th.png[/img][/url] [url=https://extraimage.net/image/Tw03][img]https://extraimage.net/images/2017/08/15/d5c16e1117cebc4cfe74b5a1417afd0b.th.png[/img][/url] [url=https://extraimage.net/image/Tw09][img]https://extraimage.net/images/2017/08/15/dcc85e2dd96aa1423e7bded93406a9c6.th.png[/img][/url] [url=https://extraimage.net/image/Tw0M][img]https://extraimage.net/images/2017/08/15/580b87626c78d4f2f8733dbbb7bbe0fa.th.png[/img][/url] [url=https://extraimage.net/image/Tw0z][img]https://extraimage.net/images/2017/08/15/1c7a47c95a50403b254ad6947fd87af6.th.png[/img][/url] [url=https://extraimage.net/image/Tw0U][img]https://extraimage.net/images/2017/08/15/9c11974feae173cdee41b6307b0999ea.th.png[/img][/url] [url=https://extraimage.net/image/Tw00][img]https://extraimage.net/images/2017/08/15/3e280b1b2e0618da77869929cbe7deb2.th.png[/img][/url] [url=https://extraimage.net/image/Tw0J][img]https://extraimage.net/images/2017/08/15/922fc9a7cd69922622088b5f12ff8e6c.th.png[/img][/url] [url=https://extraimage.net/image/Tw0Z][img]https://extraimage.net/images/2017/08/15/d6e1489a15887c1e6dd70f734345f08d.th.png[/img][/url] [url=https://extraimage.net/image/Tw0K][img]https://extraimage.net/images/2017/08/15/a81582704cd6640f1055b4ba5273270e.th.png[/img][/url] [url=https://extraimage.net/image/Tw0e][img]https://extraimage.net/images/2017/08/15/99e5b23a7864ebcc6cb73056cb46de5d.th.png[/img][/url] [url=https://extraimage.net/image/Tw04][img]https://extraimage.net/images/2017/08/15/e2eb8bd1f37b9143e5edbb7b46719bc5.th.png[/img][/url] [url=https://extraimage.net/image/Tw0B][img]https://extraimage.net/images/2017/08/15/446349cffea7d64a7ec268e70d38a540.th.png[/img][/url] [url=https://extraimage.net/image/Tw0C][img]https://extraimage.net/images/2017/08/15/e87ad6fb88c4b90735259fb60db1f783.th.png[/img][/url]

[img]https://extraimage.net/images/2017/01/23/7f4ee9130941f6c16858c2472cb12fcb.png[/img]

[img]https://extraimage.net/images/2017/01/26/68bb62a0c73c0aba2d6d6e979f05833f.gif[/img]
[img]https://extraimage.net/images/2017/01/23/5acaf8416573ce74e10d4695e3a379c9.png[/img]
[img]https://extraimage.net/images/2017/01/26/11cb1f870af6f2c238ec96e701f9cc01.gif[/img]



[url=https://www.facebook.com/TaRaHQOfficial/][img]https://www.jiopic.com/images/2017/05/04/FindusonFacebookLogo.jpg[/img][/url]
[/center] ]]>
The.Immortal.Life.of.Henrietta.Lacks.2017.1080p.BluRay.x264-ROVERS http://glodls.to/torrent.php?id=2726145 http://glodls.to/torrent.php?id=2726145 Mon, 21 Aug 2017 16:22:33 +0100 Movies
[b]ImDb: [URL]http://www.imdb.com/title/tt5686132[/URL][/b]

[url=https://www.sparrowpics.com/image/kbFon][img]https://www.sparrowpics.com/images/2017/07/04/kbFon.png[/img][/url]

[b]Complete name : The.Immortal.Life.of.Henrietta.Lacks.2017.1080p.BluRay.x264-ROVERS.mkv
Format : Matroska
Format version : Version 4 / Version 2
File size : 6.55 GiB
Duration : 1 h 32 min
Overall bit rate : 10.1 Mb/s
Encoded date : UTC 2017-08-21 14:23:22
Writing application : mkvmerge v8.3.0 ('Over the Horizon') 64bit
Writing library : libebml v1.3.1 + libmatroska v1.4.2

Video
ID : 1
Format : AVC
Format/Info : Advanced Video Codec
Format profile : High@L4.1
Format settings, CABAC : Yes
Format settings, ReFrames : 4 frames
Codec ID : V_MPEG4/ISO/AVC
Duration : 1 h 32 min
Bit rate : 8 624 kb/s
Width : 1 920 pixels
Height : 1 080 pixels
Display aspect ratio : 16:9
Frame rate mode : Constant
Frame rate : 23.976 FPS
Color space : YUV
Chroma subsampling : 4:2:0
Bit depth : 8 bits
Scan type : Progressive
Bits/(Pixel*Frame) : 0.173
Stream size : 5.58 GiB (85%)
Writing library : x264 core 152 r2851 ba24899
Encoding settings : cabac=1 / ref=4 / deblock=1:0:0 / analyse=0x3:0x133 / me=umh / subme=7 / psy=1 / psy_rd=1.00:0.00 / mixed_ref=1 / me_range=16 / chroma_me=1 / trellis=1 / 8x8dct=1 / cqm=0 / deadzone=21,11 / fast_pskip=0 / chroma_qp_offset=-2 / threads=34 / lookahead_threads=5 / sliced_threads=0 / nr=0 / decimate=1 / interlaced=0 / bluray_compat=0 / constrained_intra=0 / bframes=3 / b_pyramid=2 / b_adapt=1 / b_bias=0 / direct=1 / weightb=1 / open_gop=0 / weightp=2 / keyint=250 / keyint_min=23 / scenecut=40 / intra_refresh=0 / rc_lookahead=40 / rc=2pass / mbtree=1 / bitrate=8624 / ratetol=1.0 / qcomp=0.60 / qpmin=0 / qpmax=69 / qpstep=4 / cplxblur=20.0 / qblur=0.5 / ip_ratio=1.40 / aq=1:1.00
Language : English
Default : Yes
Forced : No

Audio
ID : 2
Format : DTS
Format/Info : Digital Theater Systems
Mode : 16
Format settings, Endianness : Big
Codec ID : A_DTS
Duration : 1 h 32 min
Bit rate mode : Constant
Bit rate : 1 509 kb/s
Channel(s) : 6 channels
Channel positions : Front: L C R, Side: L R, LFE
Sampling rate : 48.0 kHz
Frame rate : 93.750 FPS (512 spf)
Bit depth : 24 bits
Compression mode : Lossy
Stream size : 1 000 MiB (15%)
Language : English
Default : Yes
Forced : No

Menu
00:00:00.000 : en:00:00:00.000
00:04:31.354 : en:00:04:31.354
00:11:06.082 : en:00:11:06.082
00:19:02.350 : en:00:19:02.350
00:27:13.423 : en:00:27:13.423
00:35:14.779 : en:00:35:14.779
00:45:03.951 : en:00:45:03.951
00:55:05.719 : en:00:55:05.719
01:04:23.193 : en:01:04:23.193
01:14:34.428 : en:01:14:34.428
01:21:44.191 : en:01:21:44.191
01:28:49.741 : en:01:28:49.741[/b]

[url=https://www.sparrowpics.com/image/kbJ5y][img]https://www.sparrowpics.com/images/2017/07/04/kbJ5y.png[/img][/url]

[URL=https://www.sparrowpics.com/image/Q0IKV][IMG]https://www.sparrowpics.com/images/2017/08/21/Q0IKV.th.jpg[/IMG][/URL]

[URL=https://www.sparrowpics.com/image/Q0RUd][b]Click To View Screenshot[/b][/URL]

[URL=https://www.sparrowpics.com/image/Q0Yy1][b]Click To View Screenshot[/b][/URL]

[URL=https://www.sparrowpics.com/image/Q0ocH][b]Click To View Screenshot[/b][/URL][/center] ]]>
Kidnap 2008 Hindi 720p WEB-DL x264 AAC { TaRa } http://glodls.to/torrent.php?id=2726144 http://glodls.to/torrent.php?id=2726144 Mon, 21 Aug 2017 16:22:15 +0100 Movies [b][size=5][color=#ff0080] Kidnap 2008 Hindi 720p WEB-DL x264 AAC { TaRa }.mkv [/color][/size][/b]
[img]https://extraimage.net/images/2017/08/13/7341c1f7fbfddfc952c8486309c73a44.jpg[/img]
[img]https://i.imgur.com/P1wLykr.png[/img]

[quote][size=2][color=#00b3b3][b]===================================================================
General
Complete name : Kidnap 2008 Hindi 720p WEB-DL x264 AAC { TaRa }.mkv
Format : Matroska
Format version : Version 4 / Version 2
File size : 1.29 GiB
Duration : 2 h 15 min
Overall bit rate : 1 359 kb/s
===================================================================
Video
ID : 1
Format : AVC
Format/Info : Advanced Video Codec
Format profile : High@L4.1
Format settings, CABAC : Yes
Format settings, ReFrames : 4 frames
Codec ID : V_MPEG4/ISO/AVC
Duration : 2 h 15 min
Nominal bit rate : 1 200 kb/s
Width : 1 280 pixels
Height : 544 pixels
Display aspect ratio : 2.35:1
Frame rate mode : Constant
Frame rate : 29.970 (30000/1001) FPS
Color space : YUV
Chroma subsampling : 4:2:0
Bit depth : 8 bits
Scan type : Progressive
Bits/(Pixel*Frame) : 0.058
Title : .....::::: TaRa :::::.....
Language : Hindi
Default : Yes
Forced : No
===================================================================
Audio
ID : 2
Format : AAC
Format/Info : Advanced Audio Codec
Format profile : LC
Codec ID : A_AAC
Duration : 2 h 15 min
Channel(s) : 2 channels
Channel positions : Front: L R
Sampling rate : 44.1 kHz
Frame rate : 43.066 FPS (1024 spf)
Compression mode : Lossy
Delay relative to video : -23 ms
Title : .....::::: TaRa :::::.....
Language : Hindi
Default : Yes
Forced : No
===================================================================


[/quote][/b][/color][/size]

[img]https://www.jiopic.com/images/2017/06/04/2016-11-05_170245.png[/img]
[url=https://extraimage.net/image/Tang][img]https://extraimage.net/images/2017/08/13/365ff13abc2c9ff997e30a2b9b2229a4.th.png[/img][/url] [url=https://extraimage.net/image/TanX][img]https://extraimage.net/images/2017/08/13/234a886267a4c43730ae26149b046d2b.th.png[/img][/url] [url=https://extraimage.net/image/Tan5][img]https://extraimage.net/images/2017/08/13/87d898fa59755ef2450eef6d0319cf6a.th.png[/img][/url] [url=https://extraimage.net/image/TanD][img]https://extraimage.net/images/2017/08/13/9c6a98bf54ea07a150d46e845a078d8b.th.png[/img][/url] [url=https://extraimage.net/image/TanF][img]https://extraimage.net/images/2017/08/13/c2c8371880ea963b4f710c75bfc4b6a2.th.png[/img][/url] [url=https://extraimage.net/image/TanH][img]https://extraimage.net/images/2017/08/13/6c92b6753e6197b76fb0d6349d28e12a.th.png[/img][/url] [url=https://extraimage.net/image/Tank][img]https://extraimage.net/images/2017/08/13/2ec5082d69b6fe12ed4650d00661a5c3.th.png[/img][/url] [url=https://extraimage.net/image/Tano][img]https://extraimage.net/images/2017/08/13/6b4a24f2f069b7c1f291f3ed8d6cb7aa.th.png[/img][/url] [url=https://extraimage.net/image/Tant][img]https://extraimage.net/images/2017/08/13/329540c4f7e09295eb9780c52dc441d3.th.png[/img][/url] [url=https://extraimage.net/image/Tan6][img]https://extraimage.net/images/2017/08/13/07da8bab9fd60649a5940e15833c3ee5.th.png[/img][/url] [url=https://extraimage.net/image/TanV][img]https://extraimage.net/images/2017/08/13/e4d13673c729d77d2c45c49184cae99d.th.png[/img][/url] [url=https://extraimage.net/image/Tanu][img]https://extraimage.net/images/2017/08/13/7c1edf0f25a6172127b887afa228cdf5.th.png[/img][/url] [url=https://extraimage.net/image/TanA][img]https://extraimage.net/images/2017/08/13/6482843229dc83ed12831dac9df22b57.th.png[/img][/url] [url=https://extraimage.net/image/Tanv][img]https://extraimage.net/images/2017/08/13/b13fe9a4d2f8ee8fb9c3c1157fe5d502.th.png[/img][/url] [url=https://extraimage.net/image/TanW][img]https://extraimage.net/images/2017/08/13/1b735c1a41a4b3931c7c1064576a3405.th.png[/img][/url] [url=https://extraimage.net/image/Tanf][img]https://extraimage.net/images/2017/08/13/95af04834ba3ea47b2371b783ec19bf1.th.png[/img][/url] [url=https://extraimage.net/image/Tas8][img]https://extraimage.net/images/2017/08/13/2540fc0904caceb24d35057009fc5351.th.png[/img][/url] [url=https://extraimage.net/image/Tasa][img]https://extraimage.net/images/2017/08/13/3d85e4f5db176f75d1763393f86eaf27.th.png[/img][/url] [url=https://extraimage.net/image/Tasw][img]https://extraimage.net/images/2017/08/13/65cd528a0d7ee932f819b3d5994d9063.th.png[/img][/url] [url=https://extraimage.net/image/Tas2][img]https://extraimage.net/images/2017/08/13/9c022dceb4b3d9d399cb38928dde4537.th.png[/img][/url] [url=https://extraimage.net/image/TasN][img]https://extraimage.net/images/2017/08/13/1a0f0580b9e422b5a34eb9712c217e50.th.png[/img][/url] [url=https://extraimage.net/image/TasT][img]https://extraimage.net/images/2017/08/13/2c75ccf0a78fd974824868e76b2dba86.th.png[/img][/url] [url=https://extraimage.net/image/Tasj][img]https://extraimage.net/images/2017/08/13/dded5173e9d06709ede2f68464301e63.th.png[/img][/url]
[img]https://extraimage.net/images/2017/01/23/7f4ee9130941f6c16858c2472cb12fcb.png[/img]

[img]https://extraimage.net/images/2017/01/26/68bb62a0c73c0aba2d6d6e979f05833f.gif[/img]
[img]https://extraimage.net/images/2017/01/23/5acaf8416573ce74e10d4695e3a379c9.png[/img]
[img]https://extraimage.net/images/2017/01/26/11cb1f870af6f2c238ec96e701f9cc01.gif[/img]



[url=https://www.facebook.com/TaRaHQOfficial/][img]https://www.jiopic.com/images/2017/05/04/FindusonFacebookLogo.jpg[/img][/url]
[/center] ]]>
[NubileFilms] Jill Kassidy - Heat Of The Moment (17 08 2017) http://glodls.to/torrent.php?id=2726143 http://glodls.to/torrent.php?id=2726143 Mon, 21 Aug 2017 16:21:50 +0100 Adult XXX
Genre :- [Medium Boobs, Shaved Pussy, Brunette, Long hair, Hardcore, Tan, Girl-Boy, Blowjob, Girl Orgasm, Deep Throat, Pussy Licking, 540p]

Screenshot :-

[url=http://imgtorrnt.in/view.php?id=VSZcwpf][color=green] View Screen 1 [/color] [/url]

[url=http://imgtorrnt.in/view.php?id=vDMPCKb][color=green] View Screen 2 [/color] [/url]

[img]http://s4.pic4you.ru/y2017/08-17/27034/6080379.jpeg[/img]

]]>
Counter-Strike 1 6 BullTeam exe http://glodls.to/torrent.php?id=2726142 http://glodls.to/torrent.php?id=2726142 Mon, 21 Aug 2017 16:18:41 +0100 Games # It's one of the first game of that genre and the most played and in nowadays .
# This game comes as an installer , no archive anymore , just follow the steps of the installer and you're ready to play .
# A lot of bugs fixed .
# High FPS and low lag with one of the newer dinamic library.
# FPS game , 3rd Person , action , First Person , action game .
# Just 439 Mb installer !
# ScreenShots : http://imgur.com/a/XEAhk ]]>
Baywatch 2017 720p WEB-DL x264 AAC ESub { TaRa } http://glodls.to/torrent.php?id=2726141 http://glodls.to/torrent.php?id=2726141 Mon, 21 Aug 2017 16:18:14 +0100 Movies [b][size=5][color=#ff0080] Baywatch 2017 .720p WEB-DL x264 AAC ESub { TaRa }.mkv[/color][/size][/b]
[img]https://extraimage.net/images/2017/08/15/4c22bd8c78d59af002f9cc7e29678bca.jpg[/img]
[img]https://i.imgur.com/P1wLykr.png[/img]

[quote][size=2][color=#00b3b3][b]===================================================================
General
Complete name : Baywatch 2017 .720p WEB-DL x264 AAC ESub { TaRa }.mkv
Format : Matroska
Format version : Version 4 / Version 2
File size : 991 MiB
Duration : 1 h 56 min
Overall bit rate : 1 187 kb/s
===================================================================
Video
ID : 1
Format : AVC
Format/Info : Advanced Video Codec
Format profile : High@L4.1
Format settings, CABAC : Yes
Format settings, ReFrames : 5 frames
Codec ID : V_MPEG4/ISO/AVC
Duration : 1 h 56 min
Bit rate : 1 070 kb/s
Width : 1 280 pixels
Height : 536 pixels
Display aspect ratio : 2.40:1
Frame rate mode : Constant
Frame rate : 23.976 (24000/1001) FPS
Color space : YUV
Chroma subsampling : 4:2:0
Bit depth : 8 bits
Scan type : Progressive
Bits/(Pixel*Frame) : 0.065
Stream size : 864 MiB (87%)
Title : .....:::::: TaRa :::::.....
Language : English
Default : Yes
Forced : No
===================================================================
Audio
ID : 2
Format : AAC
Format/Info : Advanced Audio Codec
Format profile : LC
Codec ID : A_AAC
Duration : 1 h 56 min
Bit rate : 149 kb/s
Channel(s) : 2 channels
Channel positions : Front: L R
Sampling rate : 44.1 kHz
Frame rate : 43.066 FPS (1024 spf)
Compression mode : Lossy
Stream size : 124 MiB (13%)
Title : .....:::::: TaRa :::::.....
Language : English
Default : Yes
Forced : No
===================================================================
Text
ID : 3
Format : UTF-8
Codec ID : S_TEXT/UTF8
Codec ID/Info : UTF-8 Plain Text
Duration : 1 h 49 min
Bit rate : 79 b/s
Count of elements : 1961
Stream size : 63.1 KiB (0%)
Title : .....:::::: TaRa :::::.....
Language : English
Default : Yes
Forced : No
===================================================================
[/quote][/b][/color][/size]

[img]https://www.jiopic.com/images/2017/06/04/2016-11-05_170245.png[/img]
[url=https://extraimage.net/image/TwMa][img]https://extraimage.net/images/2017/08/15/c9ac238f75150243347015208c1790ba.th.png[/img][/url] [url=https://extraimage.net/image/TwMw][img]https://extraimage.net/images/2017/08/15/0d9e0ff8bd98726ab9bac9ea4a13025a.th.png[/img][/url] [url=https://extraimage.net/image/TwM2][img]https://extraimage.net/images/2017/08/15/80131d61c59b9131774e51fc1007e3f9.th.png[/img][/url] [url=https://extraimage.net/image/TwMN][img]https://extraimage.net/images/2017/08/15/5a99cc5da457350905b1d3d5c078b1b6.th.png[/img][/url] [url=https://extraimage.net/image/TwMT][img]https://extraimage.net/images/2017/08/15/85201993d13ae35983766f56e122e23d.th.png[/img][/url] [url=https://extraimage.net/image/TwMn][img]https://extraimage.net/images/2017/08/15/bf1134976aab9e4673bc0133a19bf6a2.th.png[/img][/url] [url=https://extraimage.net/image/TwMs][img]https://extraimage.net/images/2017/08/15/00e31bae8eea6c6f51e1cd81569c1b16.th.png[/img][/url] [url=https://extraimage.net/image/TwM7][img]https://extraimage.net/images/2017/08/15/1eb139ad94d05361e958328908bf6c19.th.png[/img][/url] [url=https://extraimage.net/image/TwMc][img]https://extraimage.net/images/2017/08/15/42024ed4b7d5d7472ad89192b2ff34a6.th.png[/img][/url] [url=https://extraimage.net/image/TwM1][img]https://extraimage.net/images/2017/08/15/5402ab159abc56ea367407609745f7ca.th.png[/img][/url] [url=https://extraimage.net/image/TwME][img]https://extraimage.net/images/2017/08/15/e427412afc2819c1d74610f3ed8b0ccd.th.png[/img][/url] [url=https://extraimage.net/image/TwMO][img]https://extraimage.net/images/2017/08/15/f347d8d57aa0cbd7dd0c69e8ee1fe536.th.png[/img][/url] [url=https://extraimage.net/image/TwMS][img]https://extraimage.net/images/2017/08/15/4aabed44b64e35ae37f04321a464ee64.th.png[/img][/url] [url=https://extraimage.net/image/TwMq][img]https://extraimage.net/images/2017/08/15/f603797b84677eabeec660b022d222f2.th.png[/img][/url] [url=https://extraimage.net/image/TwMy][img]https://extraimage.net/images/2017/08/15/df63948ac4c1a082138298aced94616f.th.png[/img][/url] [url=https://extraimage.net/image/TwML][img]https://extraimage.net/images/2017/08/15/596464e989b064b434749b2e0ed1208e.th.png[/img][/url] [url=https://extraimage.net/image/TwMQ][img]https://extraimage.net/images/2017/08/15/9e03447612053948d24be802b9e235fd.th.png[/img][/url] [url=https://extraimage.net/image/TwMR][img]https://extraimage.net/images/2017/08/15/9010caadf04f8380c169cddcb28148fb.th.png[/img][/url] [url=https://extraimage.net/image/TwMm][img]https://extraimage.net/images/2017/08/15/df58c6a9b4267859b596e8b61a6fbbd7.th.png[/img][/url] [url=https://extraimage.net/image/TwMi][img]https://extraimage.net/images/2017/08/15/f09e3380ccacb8dcf6d345533760708d.th.png[/img][/url] [url=https://extraimage.net/image/TwMl][img]https://extraimage.net/images/2017/08/15/81a9e36551b444a006b21654ddbb8b2c.th.png[/img][/url] [url=https://extraimage.net/image/TwMI][img]https://extraimage.net/images/2017/08/15/c2b7d3d1ac451ea37e70f3aeca5e35ed.th.png[/img][/url] [url=https://extraimage.net/image/TwMd][img]https://extraimage.net/images/2017/08/15/8066bfe11f5cd91639bcd29166f06962.th.png[/img][/url] [url=https://extraimage.net/image/TwMh][img]https://extraimage.net/images/2017/08/15/7a8f95ee3a2b472fd6c8c66dae14ffe1.th.png[/img][/url] [url=https://extraimage.net/image/TwMb][img]https://extraimage.net/images/2017/08/15/6410e23026601b126a9fb3ea14691dca.th.png[/img][/url] [url=https://extraimage.net/image/TwM3][img]https://extraimage.net/images/2017/08/15/cd515b3bcecb2b05bc9b334ad673858c.th.png[/img][/url]

[img]https://extraimage.net/images/2017/01/23/7f4ee9130941f6c16858c2472cb12fcb.png[/img]

[img]https://extraimage.net/images/2017/01/26/68bb62a0c73c0aba2d6d6e979f05833f.gif[/img]
[img]https://extraimage.net/images/2017/01/23/5acaf8416573ce74e10d4695e3a379c9.png[/img]
[img]https://extraimage.net/images/2017/01/26/11cb1f870af6f2c238ec96e701f9cc01.gif[/img]



[url=https://www.facebook.com/TaRaHQOfficial/][img]https://www.jiopic.com/images/2017/05/04/FindusonFacebookLogo.jpg[/img][/url]
[/center] ]]>
Pack 11 movies Portable mp4 Italian English http://glodls.to/torrent.php?id=2726139 http://glodls.to/torrent.php?id=2726139 Mon, 21 Aug 2017 16:16:25 +0100 Mobile

[center][img]https://worldimages.gallery/images/2017/08/21/wbb78d.png[/img][/center]

Elenco movies presenti nella release:

Rough Night - Crazy Night - Festa Col Morto (2017).m4v
Fallen (2016)Portable.mp4.ita.eng.iCV-MIRCrew.m4v
Run All Night - Una Notte Per Sopravvivere (2015).Portable.mp4.ita.eng.iCV-MIRCrew.m4v
Slither (2006)Portable.mp4..ita.eng.iCV-MIRCrew.m4v
The 9th Life Of Louis Drax (2016).Portable.mp4.ita.eng.iCV-MIRCrew.m4v
Assassins Creed (2016) Portable.mp4.ita.eng..iCV-MIRCrew.mp4
Ma Loute (2016) .mp4.portable.ita.fre.iCV-MIRCrew.mp4
Morgan (2016) Portable.mp4.ita.eng.iCV-MIRCrew.mp4
Passengers (2016) Portable.mp4.ita.eng.sub.iCV-MIRCrew.mp4
Perfect Day (2015) Portable.mp4.ita.eng.iCV-MIRCrew.mp4
The Blind King (2016).Portable.mp4.ita.eng.iCV-MIRCrew.mp4

[img]https://i.imgur.com/K8bfNTy.png[/img]

[img]https://worldimages.gallery/images/2017/08/21/vlcsnap-2017-08-21-16h58m45s227.png[/img]
[img]https://worldimages.gallery/images/2017/08/21/vlcsnap-2017-08-21-16h59m07s206.png[/img]
[img]https://worldimages.gallery/images/2017/08/21/vlcsnap-2017-08-21-16h59m29s166.png[/img]


[img]https://i.imgur.com/aVrMohH.png[/img]

[spoiler]Generale
Nome completo : Pack 11 Movies.portable.mp4.ita.eng.iCV-MIRCrew\The 9th Life Of Louis Drax (2016).Portable.mp4.ita.eng.iCV-MIRCrew.m4v
Formato : MPEG-4
Profilo formato : Base Media / Version 2
ID codec : mp42 (isom/iso2/avc1/mp41)
Dimensione : 550MiB
Durata : 1o 48min
Modo bitrate generale : Variabile
Bitrate totale : 710 Kbps
Film : www.icv-crew.org
Data registrazione : 2017
Data codifica : UTC 2017-08-21 14:17:21
Data : UTC 2017-08-21 14:17:21
Creato con : HandBrake 0.10.5 2016021100

Video
ID : 1
Formato : AVC
Formato/Informazioni : Advanced Video Codec
Profilo formato : Main@L4
Impostazioni formato, CABAC : Si
Impostazioni formato, ReFrames : 4 frame
ID codec : avc1
ID codec/Informazioni : Advanced Video Coding
Durata : 1o 48min
Bitrate : 480 Kbps
Larghezza : 320 pixel
Altezza : 134 pixel
Rapporto aspetto visualizzazione : 2,40:1
Modalità frame rate : Variabile
Frame rate : 23,976 fps
Frame rate minimo : 23,810 fps
Frame rate massimo : 24,390 fps
Spazio colore : YUV
Croma subsampling : 4:2:0
Profondità bit : 8 bit
Tipo scansione : Progressivo
Bit/(pixel*frame) : 0.467
Dimensione della traccia : 368MiB (67%)
Compressore : x264 core 142 r2479 dd79a61
Impostazioni compressione : cabac=1 / ref=1 / deblock=1:0:0 / analyse=0x1:0x111 / me=hex / subme=2 / psy=1 / psy_rd=1.00:0.00 / mixed_ref=0 / me_range=16 / chroma_me=1 / trellis=0 / 8x8dct=0 / cqm=0 / deadzone=21,11 / fast_pskip=1 / chroma_qp_offset=0 / threads=12 / lookahead_threads=1 / sliced_threads=0 / nr=0 / decimate=1 / interlaced=0 / bluray_compat=0 / constrained_intra=0 / bframes=3 / b_pyramid=2 / b_adapt=1 / b_bias=0 / direct=1 / weightb=1 / open_gop=0 / weightp=1 / keyint=240 / keyint_min=24 / scenecut=40 / intra_refresh=0 / rc_lookahead=10 / rc=abr / mbtree=1 / bitrate=480 / ratetol=1.0 / qcomp=0.60 / qpmin=0 / qpmax=69 / qpstep=4 / vbv_maxrate=20000 / vbv_bufsize=25000 / nal_hrd=none / filler=0 / ip_ratio=1.40 / aq=1:1.00
Data codifica : UTC 2017-08-21 14:17:21
Data : UTC 2017-08-21 14:17:21
colour_range : Limited
Colori primari : BT.601 NTSC
Caratteristiche trasferimento : BT.709
Coefficienti matrici : BT.601
Menus : 4

Audio #1
ID : 2
Formato : AAC
Formato/Informazioni : Advanced Audio Codec
Profilo formato : LC
ID codec : 40
Durata : 1o 48min
Modalità bitrate : Variabile
Bitrate : 112 Kbps
Canali : 2 canali
Posizione canali : Front: L R
Frequenza campionamento : 48,0 KHz
Frame rate : 46,875 fps (1024 spf)
Modo compressione : Con perdita
Dimensione della traccia : 86,8MiB (16%)
Titolo : Stereo / Stereo
Lingua : Italiano
Default : Si
Alternate group : 1
Data codifica : UTC 2017-08-21 14:17:21
Data : UTC 2017-08-21 14:17:21
Menus : 4

Audio #2
ID : 3
Formato : AAC
Formato/Informazioni : Advanced Audio Codec
Profilo formato : LC
ID codec : 40
Durata : 1o 48min
Modalità bitrate : Variabile
Bitrate : 112 Kbps
Canali : 2 canali
Posizione canali : Front: L R
Frequenza campionamento : 48,0 KHz
Frame rate : 46,875 fps (1024 spf)
Modo compressione : Con perdita
Dimensione della traccia : 86,9MiB (16%)
Titolo : Stereo / Stereo
Lingua : Inglese
Default : No
Alternate group : 1
Data codifica : UTC 2017-08-21 14:17:21
Data : UTC 2017-08-21 14:17:21
Menus : 4

Menu
ID : 4
ID codec : text
Durata : 1o 48min
Lingua : Inglese
Data codifica : UTC 2017-08-21 14:17:21
Data : UTC 2017-08-21 14:17:21
Modalità bitrate : CBR
Menu For : 1,2,3
00:00:00.000 : 00:00:00.000
00:06:47.407 : 00:06:47.365
00:12:14.902 : 00:12:14.817
00:17:22.334 : 00:17:22.291
00:22:47.701 : 00:22:47.658
00:30:06.098 : 00:30:06.054
00:37:27.707 : 00:37:27.662
00:43:14.429 : 00:43:14.383
00:48:41.339 : 00:48:41.293
00:57:06.553 : 00:57:06.506
01:02:41.096 : 01:02:41.049
01:07:14.119 : 01:07:14.072
01:14:28.304 : 01:14:28.255
01:20:15.443 : 01:20:15.394
01:25:10.446 : 01:25:10.397
01:38:36.086 : 01:38:36.035

[/spoiler] ]]>